VA - The Many Faces Of Queen (2018)

VA - The Many Faces Of Queen (2018)
Rock | FLAC (tracks) | Covers | 2:08:40 | 841 MB + 5% Recovery
Label: Music Brokers | Tracks: 33 | Rls.date: 2018

Few bands embodied the pure excess of the '70s like Queen. Embracing the exaggerated pomp of progressive rock and heavy metal, as well as vaudevillian music hall, the British quartet delved deeply into camp and bombast, creating a huge, mock-operatic sound with layered guitars and overdubbed vocals. Queen's music was a bizarre yet highly accessible fusion of the macho and the fey. For years, their albums boasted the motto "no synthesizers were used on this record," signaling their allegiance with the legions of post-Led Zeppelin hard rock bands. In The Many Faces of Queen we will delve into the inner world of the legendary British foursome including their early recordings, collaborations and their fantastic repertoire. With remastered sound and fantastic artwork, The Many Faces Of Queen is an essential addition to your rock music collection.
Tracklist:
Disc 1
1. Going Back - Larry Lurex
2. Mad The Swine - Queen
3. The Man From Manhattan - Eddie Howell, Brian May & Freddie Mercury
4. Nobody Knew (Black White House) - Carmine Appice Feat. Brian May
5. I Can Hear Music - Larry Lurex
6. Step On Me - Smile
7. April Lady - Smile
8. Doin’ All Right - Smile
9. Earth - Smile
10. Polar Bear - Smile
11. The Man From Manhattan (Back Again) - Eddie Howell, Brian May & Freddie Mercury
12. Blag - Smile
Disc 2
1. I Want It All - Robin McAuley, Bob Kulick & Ricky Phillips
2. Sheer Heart Attack - Carmine Appice, Tony Franklin & Marty Friedman
3. Another One Bites The Dust - Tommy Aldridge & Rudy Sarzo
4. Save Me - Bob Kulick, Bruce Kulick, Eric Singer & Ricky Phillips
5. We Will Rock You - Paul Shortino, Bob Kulick & Nick Dio
6. We Are The Champions - Carmine Appice, Robby Krieger, Bob Kulick & Michael Sherwood
7. Tie Your Mother Down - Lemmy, Rudy Sarzo, Tommy Aldridge & Bob Kulick
8. Get Down Make Love - Jake E. Lee, Glenn, Hughes, Carmine Appice & Tony Franklin
9. Keep Yourself Alive - Yngwie Malmsteen, Tommy Aldridge & Rudy Sarzo
10. One Vision - James LeBrie, Bob Kulick & Ricky Phillips
11. It’s Late - John Bush, Jason Ian, Scott Ian & Zachary Throne
Disc 3
1. The Queen Symphony - We Will Rock You
2. Queen Symphony - Flash
3. Queen Symphony - Love Of My Life
4. Queen Symphony - Under Pressure
5. Queen Symphony - Don’t Stop Me Now
6. Queen Symphony - Killer Queen
7. Queen Symphony - Play The Game
8. Queen Symphony - Love Of My Life (For Piano & Orchestra)
9. Queen Symphony - Bohemian Rhapsody
10. Queen Symphony - We Are The Champions Dynamic Range Report
foobar2000 1.3.9 / Dynamic Range Meter 1.1.1
log date: 2019-08-04 17:37:30
--
Analyzed: Carmine Appice Feat. Brian May / The Many Faces of Queen - A Journey Throught the Inner World of Queen (1)
Eddie Howell, Brian May & Freddie Mercury / The Many Faces of Queen - A Journey Throught the Inner World of Queen (2-3)
Larry Lurex / The Many Faces of Queen - A Journey Throught the Inner World of Queen (4-5)
Queen / The Many Faces of Queen - A Journey Throught the Inner World of Queen (6)
Smile / The Many Faces of Queen - A Journey Throught the Inner World of Queen (7-12)
--
DR Peak RMS Duration Track
--
DR8 -0.42 dB -9.52 dB 4:49 04-Nobody Knew (Black White House)
DR7 -0.25 dB -9.90 dB 3:20 03-The Man From Manhattan
DR7 -0.21 dB -10.30 dB 4:53 11-The Man From Manhattan (Back Again)
DR7 -0.69 dB -10.10 dB 3:17 01-Going Back
DR7 -0.59 dB -8.77 dB 3:19 05-I Can Hear Music
DR6 -0.52 dB -8.38 dB 3:20 02-Mad the Swine
DR7 0.00 dB -8.13 dB 3:11 06-Step on Me
DR6 -0.34 dB -8.07 dB 2:43 07-April Lady
DR7 -0.36 dB -9.99 dB 3:48 08-Doin' All Right
DR6 0.00 dB -7.81 dB 4:00 09-Earth
DR5 -0.40 dB -7.64 dB 3:56 10-Polar Bear
DR5 0.00 dB -7.28 dB 3:17 12-Blag
--
Number of tracks: 12
Official DR value: DR7
Samplerate: 44100 Hz
Channels: 2
Bits per sample: 16
Bitrate: 921 kbps
Codec: FLAC
========
--
Analyzed: Bob Kulick, Bruce Kulick, Eric Singer & Ricky Phillips / The Many Faces of Queen - A Journey Throught the Inner World of Queen (1)
Carmine Appice, Robby Krieger, Bob Kulick & Michael Sherwood / The Many Faces of Queen - A Journey Throught the Inner World of Queen (2)
Carmine Appice, Tony Franklin & Marty Friedman / The Many Faces of Queen - A Journey Throught the Inner World of Queen (3)
Jake E. Lee, Glenn Hughes, Carmine Appice & Tony Franklin / The Many Faces of Queen - A Journey Throught the Inner World of Queen (4)
James LaBrie, Bob Kulick & Ricky Phillips / The Many Faces of Queen - A Journey Throught the Inner World of Queen (5)
John Bush, Jason Ian, Scott Ian & Zachary Throne / The Many Faces of Queen - A Journey Throught the Inner World of Queen (6)
Lemmy Kilmister, Rudy Sarzo, Tommy Aldridge & Bob Kulick / The Many Faces of Queen - A Journey Throught the Inner World of Queen (7)
Paul Shortino, Bob Kulick & Nick Dio / The Many Faces of Queen - A Journey Throught the Inner World of Queen (8)
Robin McAuley, Bob Kulick & Ricky Phillips / The Many Faces of Queen - A Journey Throught the Inner World of Queen (9)
Tommy Aldridge & Rudy Sarzo / The Many Faces of Queen - A Journey Throught the Inner World of Queen (10)
Yngwie J. Malmsteen, Tommy Aldridge & Rudy Sarzo / The Many Faces of Queen - A Journey Throught the Inner World of Queen (11)
Download link :
(If you need these, buy and download immediately before they are delete)
Links are Interchangeable - Single Extraction - Premium is support resumable
шаблоны для dle 11.2